中国汽车音响改装网论坛【音改网】

 找回密码
 立即注册

QQ登录

只需一步,快速开始

总共6323条微博

发现动态

查看: 87|回复: 7

[华语流行] 低速原版抓轨 2018年成都国际音响展纪念CD[百度云/WAV]

  [复制链接]

Rank: 9Rank: 9Rank: 9

帖子 3152

积分 13845

威望 1310

魅力 2893

注册时间 2016-3-23

居住地 广东省 深圳市 福田区 梅林街道

发表于 2018-10-27 11:29:56 | 显示全部楼层 |阅读模式

欢迎光临!中国汽车音响改装网论坛,马上注册拥有更多功能!

您需要 登录 才可以下载或查看,没有帐号?立即注册

x
管理提示:文章已作音改网首页展示http://new.jzzchn.com/show-223.html

由四川省电子学会 成都市工业经济发展研究中心主办, 电子报社 、产城杂志社、 成都市电子学会 、 成都市电子行业协会协办的2018成都国际音响展于10月19日上午9点在成都龙之梦大酒店隆重开幕,拉开了为期三天的影音盛宴的序幕。

       2018成都国际音响展今日正式向公众开放!本届展会吸引了来自世界各地的200多个影音器材制造商参展,荟萃了500余个世界顶级影音品牌,展示内容不仅有经典极品发烧音响器材,也有高端影院器材,还有数码音响、便携播放设备、时尚耳机,黑胶唱片和CD唱片众多厂家。家电论坛作为受邀媒体之一,为各位带来精彩报道。

QQ截图20181027112633.jpg QQ截图20181027112645.jpg QQ截图20181027112653.jpg QQ截图20181027112702.jpg QQ截图20181027112710.jpg QQ截图20181027112722.jpg QQ截图20181027112732.jpg
Exact Audio Copy V1.0 beta 3 from 29. August 2011

EAC 抓取日志文件从24. 十月 2018, 22:03

群星 / 2018成都国际音响展纪念CD

使用驱动器  :HL-DT-STDVD+-RW GHB0N   Adapter: 0  ID: 0

读取模式      : 可靠Secure
使用精确流     : 是
清空音频缓存    : 是
使用 C2 指示器 : 否

读取偏移校正:               : 0
读取 Lead-In 和 Lead-Out : 否
用静音填充抓取中丢失偏移的采样       : 是
去除首尾静音块               : 否
在CRC 计算中使用了空样本       : 是
已用接口                  : Win NT 及 2000 本地 Win32 接口

所用输出模式: : 内部 WAV 函数
样本格式    : 44.100 Hz; 16 Bit; 立体声


已抓取 CD 的 TOC

      音轨 |    起始    |    长度    |  起始扇区  |  结束扇区  
     --------------------------------------------
      1 |  0:00.00 |  2:08.00 |      0 |   9599
       2 |  2:08.00 |  2:56.00 |   9600 |  22799
       3 |  5:04.00 |  2:28.00 |  22800 |  33899
       4 |  7:32.00 |  4:17.00 |  33900 |  53174
       5 | 11:49.00 |  3:07.00 |  53175 |  67199
       6 | 14:56.00 |  3:59.00 |  67200 |  85124
       7 | 18:55.00 |  4:35.00 |  85125 | 105749
       8 | 23:30.00 |  3:37.00 | 105750 | 122024
       9 | 27:07.00 |  2:42.00 | 122025 | 134174
      10 | 29:49.00 |  3:45.00 | 134175 | 151049
      11 | 33:34.00 |  3:22.00 | 151050 | 166199
      12 | 36:56.00 |  1:05.00 | 166200 | 171074
      13 | 38:01.00 |  2:41.00 | 171075 | 183149
      14 | 40:42.00 |  4:41.00 | 183150 | 204224
      15 | 45:23.00 |  1:34.00 | 204225 | 211274
      16 | 46:57.00 |  3:03.00 | 211275 | 224999


范围状态及错误

已选择范围

     文件名 E:\无损音乐\自抓轨CD\2018年成都国际音响展\群星 - 2018成都国际音响展纪念CD.wav

      峰值电平 100.0 %
      抓取速度 1.7 X
      范围质量 100.0 %
      复制 CRC CFDF2ABC
      复制成功

没有错误发生

状态报告结尾


游客,如果您要查看本帖隐藏内容请回复

不能上传图片的用360浏览器极速模式试试

Rank: 4

帖子 104

积分 571

威望 28

魅力 196

注册时间 2016-4-25

居住地 辽宁省 沈阳市

发表于 2018-10-27 15:38:10 | 显示全部楼层
1111111111111111111
早上好

Rank: 1

帖子 8

积分 13

威望 0

魅力 0

注册时间 2018-8-15

居住地 黑龙江省 七台河市 桃山区 桃山街道

发表于 2018-10-29 21:29:29 | 显示全部楼层
法规的公告

Rank: 2

帖子 19

积分 61

威望 10

魅力 0

注册时间 2018-10-29

居住地 广东省 佛山市

发表于 2018-10-31 16:15:52 | 显示全部楼层
多谢楼主的无私分享!

Rank: 3Rank: 3

帖子 147

积分 497

威望 0

魅力 0

注册时间 2017-11-11

居住地 广东省 深圳市 福田区 园岭街道

发表于 2018-11-1 08:19:23 | 显示全部楼层
不错的碟子,谢谢分享!
每天签到,支持原创!

Rank: 1

帖子 10

积分 35

威望 10

魅力 0

注册时间 2018-10-26

居住地 云南省 曲靖市 陆良县 中枢镇

发表于 2018-11-2 18:01:59 | 显示全部楼层
多谢楼主,多谢楼主。

Rank: 1

帖子 10

积分 35

威望 10

魅力 0

注册时间 2018-10-17

居住地 陕西省 西安市

发表于 2018-11-5 16:10:44 | 显示全部楼层
ddddddddddddddddd

Rank: 1

帖子 6

积分 14

威望 0

魅力 0

注册时间 2018-11-5

居住地 重庆市

发表于 2018-11-6 11:08:25 | 显示全部楼层
多谢楼主的无私分享

QQ|手机站|小黑屋|Archiver|中国汽车音响改装网论坛【音改网】 ( 蜀ICP备17038180号-2 )

GMT+8, 2018-11-20 22:06 , Processed in 0.406250 second(s), 25 queries , XCache On.

Powered by Discuz! X3.4

© 2001-2017 Comsenz Inc.

快速回复 返回顶部 返回列表