中国汽车音响改装网论坛【音改网】

 找回密码
 立即注册

QQ登录

只需一步,快速开始

总共6323条微博

发现动态

查看: 83|回复: 7

[怀旧经典] 原创】群星-金庸武侠音乐秘笈,宝丽金影视金曲 24KHDCD(...

  [复制链接]

Rank: 9Rank: 9Rank: 9

帖子 3152

积分 13845

威望 1310

魅力 2893

注册时间 2016-3-23

居住地 广东省 深圳市 福田区 梅林街道

发表于 2018-10-31 21:35:32 | 显示全部楼层 |阅读模式

欢迎光临!中国汽车音响改装网论坛,马上注册拥有更多功能!

您需要 登录 才可以下载或查看,没有帐号?立即注册

x
本人上传宣传碟、试音碟、非卖品很多链接都失效,近期很多会员要求重新发布,经整理后准备重新发布,禁止一切外传,谢谢合作!!
所收藏此唱片为唱片公司提供宣传碟、试音碟、非卖品等,无外包装,只有碟片。由自己原抓原创,帖子中的CD图片为自描大图,专辑资料来源网络。


041936t9unayba42x2mbza.jpg
专辑名称: 金庸武侠音乐秘笈 DSD
专辑艺人: 群星
版权提供:EMI Music
出版:国际文化交流音像出版社
发行:上海步升大风音乐文化传播有限公司
发行时间: 2006年08月14日
资源类型:WAV/CUE/LOG

专辑介绍

近期在电视上热播中的《神鵰侠侣》,相信读者们即使未看过原著,也会知道是出自武侠小说名家金庸笔下,而他的武侠小说包括﹕《书剑恩仇录》、《倚天屠龙记》、《射鵰英雄传》、《神鵰侠侣》、《天龙八部》、《雪山飞狐》等都被买来改编重拍多次搬上荧幕。每个年代都有不同的金庸笔下大侠诞生,虽然评语多数都是新不如旧,但始终原著人物的神髓依然吸引观眾追看,这就是经典之谓。

既然曾拍过如此多电视剧,自然也有很多膾炙人口的主题曲与插曲,所以EMI百代唱片集结了14首来了不同的金庸武侠小说改编之主题曲与插歌演奏版,邀请著名演奏家王磊、辛小玲、朱文昌及过百位音乐家融合中西歌来演绎,尤其是《万水千山纵横》的激情澎湃、《何日再相见》(刘德华为神鵰所唱主题曲)的柔情缠绵,《铁血丹心》的侠客傲骨都让人印象深刻,这就是《金庸武侠音乐秘笈》神髓所在。

专辑曲目

01. 上海滩《上海滩》主题曲    [0:03:14.55]
02. 沧海一声笑《笑傲江湖》主题曲    [0:03:02.46]
03. 铁血丹心《射雕英雄传》主题曲    [0:03:02.56]
04. 石头记《倩女幽魂》主题曲    [0:04:36.59]
05. 当年情《英雄本色》主题曲    [0:04:21.20]
06. 两忘烟水里《天龙八部》主题曲    [0:03:17.32]
07. 世间始终你好《世间始终你好》主题曲    [0:02:51.44]
08. 忘尽心中情《苏乞儿》主题曲    [0:03:40.21]
09. 他令我改变《王虎将》主题曲    [0:03:08.47]
10. 一生有意义《射雕英雄传之东邪西毒》主题曲    [0:03:11.61]
11. 书剑恩仇录《书剑恩仇录》主题曲    [0:03:09.66]
12. 男儿当自强《黄飞鸿》主题曲    [0:04:18.45]
13. 心债《香城浪子》主题曲    [0:02:54.45]
14. 城市足印《流氓大亨》主题曲    [0:03:25.53]
15. 焚心似火《古今大战秦俑情》主题曲    [0:04:00.73]
16. 从未试过拥有《今生无悔》主题曲    [0:04:55.35]
游客,如果您要查看本帖隐藏内容请回复


本專輯版權屬唱片公司所有,只可用於個人試聽交流使用,
禁用於任何商業用途或公開傳播的場合,請在試聽後24小時內刪除,
本人不承擔與之相關的一切法律責任.
如您喜歡此專輯的內容,請購買正版專輯!
  • Exact Audio Copy V1.0 beta 3 from 29. August 2011
  • EAC extraction logfile from 4. October 2013, 17:03
  • 群星 / 宝丽金影视金曲
  • Used drive  : PIONEER DVD-RW DVR-K17RS   Adapter: 2  ID: 1
  • Read mode               : Secure
  • Utilize accurate stream : Yes
  • Defeat audio cache      : Yes
  • Make use of C2 pointers : No
  • Read offset correction                      : 48
  • Overread into Lead-In and Lead-Out          : No
  • Fill up missing offset samples with silence : Yes
  • Delete leading and trailing silent blocks   : No
  • Null samples used in CRC calculations       : Yes
  • Used interface                              : Native Win32 interface for Win NT & 2000
  • Used output format : Internal WAV Routines
  • Sample format      : 44.100 Hz; 16 Bit; Stereo
  • TOC of the extracted CD
  •      Track |   Start  |  Length  | Start sector | End sector
  •     ---------------------------------------------------------
  •         1  |  0:00.00 |  3:14.55 |         0    |    14604
  •         2  |  3:14.55 |  3:02.46 |     14605    |    28300
  •         3  |  6:17.26 |  3:02.56 |     28301    |    42006
  •         4  |  9:20.07 |  4:36.59 |     42007    |    62765
  •         5  | 13:56.66 |  4:21.20 |     62766    |    82360
  •         6  | 18:18.11 |  3:17.32 |     82361    |    97167
  •         7  | 21:35.43 |  2:51.44 |     97168    |   110036
  •         8  | 24:27.12 |  3:40.21 |    110037    |   126557
  •         9  | 28:07.33 |  3:08.47 |    126558    |   140704
  •        10  | 31:16.05 |  3:11.61 |    140705    |   155090
  •        11  | 34:27.66 |  3:09.66 |    155091    |   169331
  •        12  | 37:37.57 |  4:18.45 |    169332    |   188726
  •        13  | 41:56.27 |  2:54.45 |    188727    |   201821
  •        14  | 44:50.72 |  3:25.53 |    201822    |   217249
  •        15  | 48:16.50 |  4:00.73 |    217250    |   235322
  •        16  | 52:17.48 |  4:55.35 |    235323    |   257482
  • Range status and errors
  • Selected range
  •      Filename F:\24KHDCD金碟\群星 - 宝丽金影视金曲\群星 - 宝丽金影视金曲.wav
  •      Peak level 100.0 %
  •      Extraction speed 4.8 X
  •      Range quality 100.0 %
  •      Copy CRC 6EC66B5D
  •      Copy OK
  • No errors occurred
  • End of status report


复制代码



不能上传图片的用360浏览器极速模式试试

Rank: 1

帖子 4

积分 14

威望 1

魅力 0

注册时间 2018-10-25

居住地 贵州省 贵阳市

发表于 2018-11-1 01:21:43 | 显示全部楼层
谢谢谢谢!我也收藏听听!

Rank: 3Rank: 3

帖子 147

积分 497

威望 0

魅力 0

注册时间 2017-11-11

居住地 广东省 深圳市 福田区 园岭街道

发表于 2018-11-1 08:15:48 | 显示全部楼层
楼主资源丰富,多谢制作、分享!
每天签到,支持原创!

Rank: 1

帖子 4

积分 10

威望 0

魅力 0

注册时间 2018-11-2

居住地 山西省 太原市 迎泽区 迎泽街道

发表于 2018-11-3 09:04:54 | 显示全部楼层
非常喜欢,多谢分享,

Rank: 1

帖子 14

积分 38

威望 10

魅力 0

注册时间 2018-10-24

居住地 江西省

发表于 2018-11-5 08:58:52 | 显示全部楼层
grtutyjyuutyt

Rank: 2

帖子 19

积分 61

威望 10

魅力 0

注册时间 2018-10-29

居住地 广东省 佛山市

发表于 2018-11-5 10:13:07 | 显示全部楼层
多谢楼主的用心!

Rank: 1

帖子 22

积分 36

威望 0

魅力 0

注册时间 2017-4-25

发表于 2018-11-5 11:02:42 | 显示全部楼层

谢谢分享

Rank: 1

帖子 2

积分 24

威望 10

魅力 0

注册时间 2018-11-5

发表于 2018-11-5 16:42:02 | 显示全部楼层

这个必须顶

QQ|手机站|小黑屋|Archiver|中国汽车音响改装网论坛【音改网】 ( 蜀ICP备17038180号-2 )

GMT+8, 2018-11-20 21:46 , Processed in 0.437500 second(s), 25 queries , XCache On.

Powered by Discuz! X3.4

© 2001-2017 Comsenz Inc.

快速回复 返回顶部 返回列表